?

Log in

No account? Create an account
Cube Of Takeru
[Download] BECK - EVOLUTION [PV] 
22nd-Sep-2010 09:13 am
Peaceful Beach
This is the original TV cap in SD quality (640x480), not from youtube cause I don't like any kind of ripping from that stream site. So please enjoy :)


 
General
Format : AVI
Format/Info : Audio Video Interleave
File size : 63.6 MiB
Duration : 2mn 53s
Overall bit rate : 3 084 Kbps

Video
ID : 0
Format : MPEG-4 Visual
Format profile : Advanced Simple@L5
Format settings, BVOP : Yes
Format settings, QPel : No
Format settings, GMC : No warppoints
Format settings, Matrix : Default (H.263)
Muxing mode : Packed bitstream
Codec ID : XVID
Codec ID/Hint : XviD
Duration : 2mn 53s
Bit rate : 2 878 Kbps
Width : 640 pixels
Height : 480 pixels
Display aspect ratio : 4:3
Frame rate : 29.970 fps
Original frame rate : 25.000 fps
Color space : YUV
Chroma subsampling : 4:2:0
Bit depth : 8 bits
Scan type : Progressive
Bits/(Pixel*Frame) : 0.313
Stream size : 59.4 MiB (93%)
Writing library : XviD 1.2.1 (UTC 2008-12-04)

Audio
ID : 1
Format : MPEG Audio
Format version : Version 1
Format profile : Layer 3
Mode : Joint stereo
Mode extension : MS Stereo
Codec ID : 55
Codec ID/Hint : MP3
Duration : 2mn 53s
Bit rate mode : Constant
Bit rate : 192 Kbps
Channel(s) : 2 channels
Sampling rate : 48.0 KHz
Stream size : 3.96 MiB (6%)
Alignment : Split accross interleaves
Interleave, duration : 967 ms (28.99 video frames)
 
Comments 
22nd-Sep-2010 02:20 am (UTC)
thank you so much<3
22nd-Sep-2010 02:41 am (UTC)
YAY nice quality~!
thank you~ ^^
22nd-Sep-2010 03:59 am (UTC)
thank you :D
22nd-Sep-2010 04:51 am (UTC)
thanks so much for this :)
22nd-Sep-2010 06:45 am (UTC)
Taking.
Thank you so much!
(Deleted comment)
22nd-Sep-2010 02:54 pm (UTC)
Thank you!!
22nd-Sep-2010 03:17 pm (UTC)
Thanks for sharing these XD
22nd-Sep-2010 04:59 pm (UTC)
thanks
(Deleted comment)
20th-Oct-2010 04:39 am (UTC)
sorta late :D;; just got here, but will be dling. thanks !
18th-Nov-2010 05:56 am (UTC)
Thanks for sharing !<3
9th-Feb-2011 07:26 pm (UTC)
Thank you very much!
This page was loaded Nov 25th 2017, 4:00 am GMT.